<?xml version="1.0" standalone="no"?>
<!DOCTYPE svg PUBLIC "-//W3C//DTD SVG 1.1//EN" "http://www.w3.org/Graphics/SVG/1.1/DTD/svg11.dtd" >
<svg xmlns="http://www.w3.org/2000/svg">
<metadata>Generated by IcoMoon</metadata>
<defs>
<font id="icomoon" horiz-adv-x="1024">
<font-face units-per-em="1024" ascent="960" descent="-64" />
<missing-glyph horiz-adv-x="1024" />
<glyph unicode="&#x20;" horiz-adv-x="512" d="" />
<glyph unicode="&#xe900;" d="M196.267 64h-51.2v554.667c0 12.8 12.8 25.6 25.6 25.6h341.333v-51.2h-315.733v-529.067z" />
<glyph unicode="&#xe901;" d="M85.333 89.6h853.333v-51.2h-853.333v51.2z" />
<glyph unicode="&#xe902;" d="M853.333 832h-341.333v-768h341.333v768z" />
<glyph unicode="&#xe903;" d="M853.333 38.4h-341.333c-12.8 0-25.6 12.8-25.6 25.6v768c0 12.8 12.8 25.6 25.6 25.6h341.333c12.8 0 25.6-12.8 25.6-25.6v-768c0-12.8-12.8-25.6-25.6-25.6zM537.6 89.6h290.133v716.8h-290.133c0 0 0-716.8 0-716.8z" />
<glyph unicode="&#xe904;" d="M631.467 712.533h119.467v-51.2h-119.467v51.2z" />
<glyph unicode="&#xe905;" d="M631.467 593.067h119.467v-51.2h-119.467v51.2z" />
<glyph unicode="&#xe906;" d="M85.333 405.333h170.667v-384h-170.667v384z" />
<glyph unicode="&#xe907;" d="M512 678.4c-8.533 0-12.8 0-21.333 0-21.333 4.267-38.4 12.8-55.467 29.867-17.067 21.333-25.6 38.4-29.867 59.733s0 42.667 4.267 64c8.533 21.333 21.333 38.4 38.4 46.933 21.333 12.8 42.667 17.067 64 17.067v0c29.867 0 55.467-12.8 76.8-29.867 21.333-21.333 29.867-46.933 29.867-76.8 0-21.333-4.267-42.667-17.067-59.733s-29.867-29.867-46.933-38.4c-12.8-8.533-29.867-12.8-42.667-12.8zM512 853.333c-12.8 0-25.6-4.267-34.133-8.533-8.533-12.8-17.067-21.333-21.333-29.867-4.267-12.8-4.267-25.6-4.267-34.133 0-17.067 8.533-25.6 17.067-34.133s21.333-12.8 29.867-17.067c12.8-4.267 25.6 0 34.133 4.267 12.8 4.267 21.333 12.8 29.867 21.333s8.533 21.333 8.533 34.133c0 17.067-8.533 34.133-17.067 42.667-8.533 12.8-25.6 17.067-42.667 21.333v0z" />
<glyph unicode="&#xe908;" d="M682.667 507.733c-8.533 0-17.067 4.267-21.333 12.8-12.8 34.133-34.133 64-64 85.333-51.2 38.4-119.467 38.4-174.933 0-25.6-21.333-46.933-46.933-64-85.333-4.267-12.8-17.067-17.067-29.867-12.8s-17.067 17.067-12.8 29.867c17.067 42.667 42.667 76.8 76.8 102.4 68.267 51.2 162.133 51.2 230.4 0 34.133-25.6 59.733-59.733 76.8-102.4 4.267-12.8 0-25.6-12.8-29.867 0 4.267 0 0-4.267 0z" />
<glyph unicode="&#xe909;" d="M704 320c0 12.8-8.533 29.867-21.333 38.4-12.8 12.8-34.133 21.333-55.467 21.333h-238.933c-21.333 0-42.667-8.533-64-17.067-17.067-8.533-34.133-21.333-46.933-38.4l-38.4 25.6c17.067 21.333 38.4 38.4 64 51.2s55.467 21.333 85.333 21.333h243.2c34.133-4.267 64-17.067 81.067-34.133 21.333-21.333 34.133-46.933 38.4-72.533l-46.933 4.267z" />
<glyph unicode="&#xe90a;" d="M273.067 42.667v46.933h384c17.067 0 34.133 8.533 46.933 17.067l183.467 162.133c12.8 8.533 21.333 21.333 21.333 38.4 4.267 17.067 0 29.867-8.533 42.667-4.267 8.533-8.533 12.8-12.8 17.067s-12.8 8.533-17.067 8.533-12.8 0-17.067 0-12.8-4.267-17.067-8.533l-153.6-110.933c-25.6-17.067-51.2-25.6-81.067-25.6h-123.733v46.933h123.733c17.067 0 38.4 4.267 51.2 17.067l157.867 115.2c12.8 8.533 25.6 12.8 38.4 17.067s25.6 0 38.4 0c12.8-4.267 25.6-8.533 34.133-17.067s17.067-17.067 25.6-29.867c12.8-21.333 17.067-46.933 12.8-76.8-4.267-25.6-17.067-51.2-38.4-68.267l-183.467-162.133c-25.6-17.067-51.2-25.6-76.8-29.867h-388.267z" />
<glyph unicode="&#xe90b;" d="M256 0h-170.667c-12.8 0-21.333 8.533-21.333 21.333v384c0 12.8 8.533 21.333 21.333 21.333h170.667c12.8 0 21.333-8.533 21.333-21.333v-384c0-12.8-8.533-21.333-21.333-21.333zM106.667 42.667h123.733v337.067h-123.733v-337.067z" />
<glyph unicode="&#xe90c;" d="M678.4 25.6h-81.067c-8.533 0-21.333 8.533-21.333 21.333v81.067c0 4.267 0 8.533 4.267 12.8l234.667 234.667c8.533 8.533 21.333 8.533 25.6 0l81.067-81.067c8.533-8.533 8.533-21.333 0-25.6l-234.667-234.667c4.267-8.533 0-8.533-8.533-8.533zM618.667 64h55.467l217.6 217.6-55.467 55.467-217.6-217.6v-55.467z" />
<glyph unicode="&#xe90d;" d="M554.667 597.333v213.333l234.667-192v-42.667h-170.667l-64 21.333z" />
<glyph unicode="&#xe90e;" d="M682.667 384h-384c-12.8 0-21.333 8.533-21.333 21.333s8.533 21.333 21.333 21.333h384c12.8 0 21.333-8.533 21.333-21.333s-8.533-21.333-21.333-21.333z" />
<glyph unicode="&#xe90f;" d="M512 256h-213.333c-12.8 0-21.333 8.533-21.333 21.333s8.533 21.333 21.333 21.333h213.333c12.8 0 21.333-8.533 21.333-21.333s-8.533-21.333-21.333-21.333z" />
<glyph unicode="&#xe910;" d="M490.667 42.667h-217.6c-38.4 0-59.733 0-76.8 8.533s-29.867 21.333-38.4 38.4-8.533 38.4-8.533 76.8v563.2c0 38.4 0 59.733 8.533 76.8s21.333 29.867 38.4 38.4c17.067 8.533 38.4 8.533 76.8 8.533h251.733c17.067 0 25.6 0 34.133-4.267 8.533 0 17.067-4.267 25.6-8.533 8.533 0 12.8-8.533 25.6-17.067l183.467-166.4c12.8-12.8 21.333-17.067 25.6-29.867 4.267-8.533 8.533-17.067 12.8-25.6s4.267-21.333 4.267-38.4v-93.867c0-12.8-8.533-21.333-21.333-21.333s-21.333 8.533-21.333 21.333v93.867c0 12.8 0 21.333 0 25.6s-4.267 8.533-4.267 12.8c-4.267 4.267-8.533 8.533-17.067 17.067l-183.467 170.667c-8.533 8.533-12.8 12.8-17.067 17.067-4.267 0-8.533 4.267-12.8 4.267s-12.8 0-25.6 0h-260.267c-29.867 0-46.933 0-55.467-4.267s-17.067-12.8-17.067-21.333c-8.533-8.533-8.533-25.6-8.533-55.467v-563.2c0-29.867 0-46.933 4.267-55.467s8.533-12.8 17.067-17.067c8.533-4.267 25.6-4.267 55.467-4.267h217.6c12.8 0 21.333-8.533 21.333-21.333s-4.267-25.6-17.067-25.6z" />
<glyph unicode="&#xe911;" d="M810.667 554.667h-153.6c-38.4 0-59.733 0-76.8 8.533s-29.867 21.333-38.4 38.4-8.533 38.4-8.533 76.8v153.6h42.667v-153.6c0-29.867 0-46.933 4.267-59.733 4.267-8.533 8.533-12.8 17.067-17.067s25.6-4.267 59.733-4.267h153.6v-42.667z" />
<glyph unicode="&#xe912;" glyph-name="ic_home" d="M938.667-4.267h-256c-12.8 0-25.6 12.8-25.6 25.6v358.4h-290.133v-358.4c0-12.8-12.8-25.6-25.6-25.6h-256c-12.8 0-25.6 12.8-25.6 25.6v512c0 8.533 4.267 17.067 8.533 21.333l426.667 341.333c8.533 8.533 21.333 8.533 34.133 0l426.667-341.333c4.267-4.267 8.533-12.8 8.533-21.333v-512c0-12.8-12.8-25.6-25.6-25.6zM708.267 46.933h204.8v473.6l-401.067 320-401.067-320v-473.6h204.8v358.4c0 12.8 12.8 25.6 25.6 25.6h341.333c12.8 0 25.6-12.8 25.6-25.6v-358.4zM512 29.867c-12.8 0-25.6 12.8-25.6 25.6v221.867c0 12.8 12.8 25.6 25.6 25.6s25.6-12.8 25.6-25.6v-221.867c0-12.8-12.8-25.6-25.6-25.6z" />
<glyph unicode="&#xe913;" d="M840.533 145.067h-610.133c-115.2 0-209.067 93.867-209.067 209.067 0 106.667 81.067 196.267 187.733 209.067l38.4 4.267 17.067 34.133c46.933 89.6 145.067 149.333 247.467 149.333 132.267 0 247.467-93.867 273.067-226.133l12.8-55.467 55.467-4.267c85.333-4.267 149.333-76.8 149.333-162.133s-72.533-157.867-162.133-157.867zM512 708.267c-89.6 0-170.667-46.933-209.067-128l-29.867-55.467-59.733-4.267c-85.333-8.533-149.333-81.067-149.333-166.4 0-93.867 72.533-166.4 166.4-166.4h610.133c64 0 119.467 55.467 119.467 119.467s-46.933 115.2-110.933 119.467l-89.6 4.267-17.067 85.333c-21.333 110.933-119.467 192-230.4 192z" />
<glyph unicode="&#xe914;" d="M354.133 401.067c-4.267-4.267 0-12.8 4.267-12.8h81.067c4.267 0 8.533-4.267 8.533-8.533v-110.933c0-4.267 4.267-8.533 8.533-8.533h106.667c4.267 0 8.533 4.267 8.533 8.533v110.933c0 4.267 4.267 8.533 8.533 8.533h81.067c8.533 0 12.8 8.533 4.267 12.8l-149.333 149.333c-4.267 4.267-8.533 4.267-12.8 0l-149.333-149.333z" />
<glyph unicode="&#xe915;" d="M567.467 247.467h-106.667c-12.8 0-25.6 8.533-25.6 21.333v106.667h-72.533c-8.533 0-17.067 4.267-21.333 12.8s0 17.067 4.267 25.6l149.333 149.333c8.533 8.533 25.6 8.533 34.133 0l149.333-149.333c8.533-8.533 8.533-17.067 4.267-25.6s-12.8-12.8-21.333-12.8h-72.533v-106.667c0-12.8-8.533-21.333-21.333-21.333zM465.067 273.067h93.867v106.667c0 12.8 8.533 21.333 21.333 21.333h64l-132.267 136.533-136.533-136.533h64c12.8 0 21.333-8.533 21.333-21.333l4.267-106.667z" />
<glyph unicode="&#xe916;" glyph-name="ic_block_on" d="M874.667 89.6v742.4c0 12.8-8.533 21.333-21.333 21.333h-341.333c-12.8 0-21.333-8.533-21.333-21.333v-187.733h-320c-12.8 0-25.6-12.8-25.6-25.6v-529.067h-59.733v-51.2h853.333v51.2h-64zM738.133 657.067h-119.467v59.733h119.467v-59.733zM738.133 597.333v-59.733h-119.467v59.733h119.467zM196.267 593.067h294.4v-503.467h-294.4v503.467z" />
<glyph unicode="&#xe917;" glyph-name="ic_reply" d="M752.64 494.080c-25.6 0-51.2-20.48-51.2-51.2s20.48-51.2 51.2-51.2 51.2 20.48 51.2 51.2-25.6 51.2-51.2 51.2zM517.12 494.080c-25.6 0-51.2-20.48-51.2-51.2s20.48-51.2 51.2-51.2 51.2 20.48 51.2 51.2-25.6 51.2-51.2 51.2zM286.72 494.080c-25.6 0-51.2-20.48-51.2-51.2s20.48-51.2 51.2-51.2 51.2 20.48 51.2 51.2-25.6 51.2-51.2 51.2zM517.12-64c-81.92 0-163.84 20.48-240.64 61.44l-194.56-35.84c-10.24 0-25.6 0-35.84 10.24s-15.36 20.48-10.24 35.84l35.84 194.56c-40.96 71.68-61.44 153.6-61.44 240.64 0 276.48 225.28 506.88 506.88 506.88s506.88-230.4 506.88-506.88-230.4-506.88-506.88-506.88zM286.72 79.36c5.12 0 15.36 0 20.48-5.12 66.56-35.84 138.24-56.32 215.040-56.32 235.52 0 430.080 189.44 430.080 430.080s-189.44 430.080-430.080 430.080-430.080-189.44-430.080-430.080c0-76.8 20.48-148.48 56.32-215.040 5.12-10.24 5.12-20.48 5.12-30.72l-30.72-153.6 153.6 30.72c5.12 0 5.12 0 10.24 0z" />
<glyph unicode="&#xe918;" glyph-name="ic_usercart" d="M663.374-37.287c-8.904 0-17.809 4.452-22.261 8.904l-164.73 155.826c-13.357 13.357-13.357 35.617 0 48.974s35.617 13.357 48.974 0l138.017-133.565 302.748 289.391c13.357 13.357 35.617 13.357 48.974 0s13.357-35.617 0-48.974l-325.009-311.652c-8.904-4.452-17.809-8.904-26.713-8.904zM716.8 372.313c-40.070 31.165-80.139 53.426-124.661 71.235 71.235 48.974 120.209 129.113 120.209 222.609 0 146.922-120.209 262.678-262.678 262.678s-267.13-120.209-267.13-267.13c0-93.496 48.974-173.635 120.209-222.609-169.183-57.878-293.843-222.609-293.843-414.052 0-17.809 13.357-35.617 35.617-35.617s35.617 13.357 35.617 35.617c0 204.8 164.73 369.53 369.53 369.53 0 0 0 0 0 0s0 0 0 0c84.591 0 164.73-26.713 227.061-80.139 13.357-13.357 35.617-8.904 48.974 4.452 8.904 22.261 4.452 40.070-8.904 53.426zM249.322 661.704c0 106.852 89.043 195.896 195.896 195.896s195.896-89.043 195.896-195.896-89.043-195.896-195.896-195.896-195.896 89.043-195.896 195.896z" />
<glyph unicode="&#xe919;" glyph-name="ic_sound" d="M485.287 105.183c-17.809 0-31.165 4.452-44.522 13.357l-204.8 138.017c-4.452 0-4.452 4.452-8.904 4.452h-133.565c-44.522 0-84.591 35.617-84.591 80.139v195.896c0 44.522 35.617 80.139 84.591 80.139h133.565c4.452 0 4.452 0 8.904 4.452l204.8 138.017c26.713 17.809 57.878 17.809 84.591 4.452s44.522-40.070 44.522-71.235v-503.096c0-31.165-17.809-57.878-44.522-71.235-13.357-13.357-26.713-13.357-40.070-13.357zM93.496 550.4c-8.904 0-13.357-8.904-13.357-13.357v-195.896c0-8.904 8.904-13.357 17.809-13.357h133.565c17.809 0 31.165-4.452 44.522-13.357l204.8-138.017c8.904-4.452 13.357 0 17.809 0s8.904 4.452 8.904 13.357v498.643c0 8.904-4.452 13.357-8.904 13.357s-8.904 4.452-17.809 0l-209.252-138.017c-13.357-8.904-31.165-13.357-44.522-13.357h-133.565zM712.348 234.296c-8.904 0-17.809 4.452-22.261 8.904-13.357 13.357-13.357 35.617 0 48.974 0 0 62.33 66.783 62.33 173.635s-62.33 173.635-62.33 173.635c-13.357 13.357-13.357 35.617 0 48.974s35.617 13.357 48.974 0c4.452-4.452 84.591-84.591 84.591-218.157s-80.139-218.157-84.591-218.157c-13.357-17.809-22.261-17.809-26.713-17.809zM859.27 87.374c-8.904 0-17.809 4.452-22.261 8.904-13.357 13.357-13.357 35.617 0 48.974 0 0 111.304 115.757 111.304 320.557s-111.304 316.104-111.304 320.557c-13.357 13.357-13.357 35.617 0 48.974s35.617 13.357 48.974 0c4.452-4.452 133.565-133.565 133.565-365.078s-124.661-360.626-133.565-365.078c-13.357-17.809-22.261-17.809-26.713-17.809z" />
<glyph unicode="&#xe91a;" glyph-name="ic_ar_sign" d="M698.182 508.509h-372.364c-18.618 0-37.236 13.964-37.236 32.582s18.618 37.236 37.236 37.236h372.364c18.618 0 37.236-13.964 37.236-37.236s-18.618-32.582-37.236-32.582zM698.182 136.145h-372.364c-18.618 0-37.236 13.964-37.236 37.236s13.964 37.236 37.236 37.236h372.364c18.618 0 37.236-13.964 37.236-37.236s-18.618-37.236-37.236-37.236zM512 322.327h-186.182c-18.618 0-37.236 13.964-37.236 37.236s13.964 37.236 37.236 37.236h186.182c18.618 0 37.236-13.964 37.236-37.236s-18.618-37.236-37.236-37.236zM902.982 783.127l-144.291 144.291c-13.964 13.964-27.927 18.618-46.545 18.618h-544.582c-32.582 0-65.164-27.927-65.164-65.164v-875.055c0-32.582 27.927-60.509 65.164-60.509h688.873c32.582 0 60.509 27.927 60.509 60.509v735.418c4.655 13.964-4.655 27.927-13.964 41.891zM823.855 759.855h-88.436v93.091l88.436-93.091zM176.873 15.127v861.091h488.727v-121.018c0-32.582 27.927-65.164 60.509-65.164h125.673v-674.909h-674.909z" />
<glyph unicode="&#xe91b;" glyph-name="ic_block_line" d="M878.933 89.6v742.4c0 12.8-12.8 25.6-25.6 25.6h-341.333c-12.8 0-25.6-12.8-25.6-25.6v-187.733h-315.733c-12.8 0-25.6-12.8-25.6-25.6v-529.067h-59.733v-51.2h853.333v51.2h-59.733zM196.267 593.067h290.133v-503.467h-290.133v503.467zM537.6 89.6v716.8h290.133v-716.8h-290.133zM631.467 712.533h119.467v-51.2h-119.467v51.2zM631.467 593.067h119.467v-51.2h-119.467v51.2z" />
<glyph unicode="&#xe91c;" glyph-name="ic_drive_line" d="M853.333 486.4l-55.467 4.267-8.533 51.2c-25.6 132.267-145.067 226.133-277.333 226.133-106.667 0-200.533-55.467-247.467-149.333l-17.067-29.867-38.4-4.267c-106.667-8.533-187.733-102.4-187.733-209.067 0-119.467 93.867-213.333 209.067-213.333h610.133c89.6 0 162.133 72.533 166.4 162.133 0 85.333-68.267 157.867-153.6 162.133zM844.8 204.8h-610.133c-93.867 0-166.4 76.8-166.4 166.4 0 85.333 59.733 153.6 145.067 162.133l59.733 8.533 29.867 55.467c42.667 81.067 119.467 128 209.067 128 110.933 0 209.067-81.067 230.4-192l17.067-85.333 98.133-8.533c59.733-4.267 106.667-55.467 106.667-115.2 0-68.267-55.467-119.467-119.467-119.467zM524.8 584.533c-8.533 8.533-25.6 8.533-34.133 0l-149.333-149.333c-4.267-8.533-8.533-21.333-4.267-29.867 4.267-12.8 17.067-17.067 25.6-17.067h72.533v-102.4c0-12.8 12.8-25.6 25.6-25.6h106.667c12.8 0 25.6 12.8 12.8 25.6v102.4h72.533c12.8 0 21.333 4.267 25.6 17.067s4.267 21.333-4.267 29.867l-149.333 149.333zM580.267 422.4c-12.8 0-25.6-12.8-25.6-25.6v-102.4h-85.333v102.4c0 12.8-12.8 25.6-25.6 25.6h-59.733l128 128 128-128h-59.733z" />
<glyph unicode="&#xe91d;" glyph-name="ic_drive_on" d="M853.333 486.4l-55.467 4.267-8.533 51.2c-25.6 132.267-145.067 226.133-277.333 226.133-106.667 0-200.533-55.467-247.467-149.333l-17.067-29.867-38.4-4.267c-106.667-8.533-187.733-102.4-187.733-209.067 0-119.467 93.867-213.333 209.067-213.333h610.133c89.6 0 162.133 72.533 166.4 162.133 0 85.333-68.267 157.867-153.6 162.133zM844.8 204.8h-610.133c-93.867 0-166.4 76.8-166.4 166.4 0 85.333 59.733 153.6 145.067 162.133l59.733 8.533 29.867 55.467c42.667 81.067 119.467 128 209.067 128 110.933 0 209.067-81.067 230.4-192l17.067-85.333 98.133-8.533c59.733-4.267 106.667-55.467 106.667-115.2 0-68.267-55.467-119.467-119.467-119.467zM665.6 418.133l-149.333 149.333c-4.267 4.267-8.533 4.267-12.8 0l-149.333-149.333c-4.267-4.267 0-12.8 4.267-12.8h81.067c4.267 0 8.533-4.267 8.533-8.533v-110.933c0-4.267 4.267-8.533 8.533-8.533h106.667c4.267 0 8.533 4.267 8.533 8.533v110.933c0 4.267 4.267 8.533 8.533 8.533h81.067c8.533 0 12.8 8.533 4.267 12.8z" />
<glyph unicode="&#xe91e;" glyph-name="ic_home_line" d="M955.733 554.667l-426.667 341.333c-12.8 8.533-25.6 8.533-34.133 0l-426.667-341.333c-4.267-4.267-8.533-12.8-8.533-21.333v-512c0-12.8 12.8-25.6 25.6-25.6h256c12.8 0 25.6 12.8 25.6 25.6v358.4h290.133v-358.4c0-12.8 12.8-25.6 25.6-25.6h256c12.8 0 25.6 12.8 25.6 25.6v512c0 8.533-4.267 17.067-8.533 21.333zM913.067 46.933h-204.8v358.4c0 12.8-12.8 25.6-25.6 25.6h-341.333c-12.8 0-25.6-12.8-25.6-25.6v-358.4h-204.8v473.6l401.067 320 401.067-320v-473.6zM512 302.933c-12.8 0-25.6-12.8-25.6-25.6v-221.867c0-12.8 12.8-25.6 25.6-25.6s25.6 12.8 25.6 25.6v221.867c0 12.8-12.8 25.6-25.6 25.6z" />
<glyph unicode="&#xe91f;" glyph-name="ic_home_on" d="M955.733 554.667l-426.667 341.333c-12.8 8.533-25.6 8.533-34.133 0l-426.667-341.333c-4.267-4.267-8.533-12.8-8.533-21.333v-512c0-12.8 12.8-25.6 25.6-25.6h256c12.8 0 25.6 12.8 25.6 25.6v358.4h290.133v-358.4c0-12.8 12.8-25.6 25.6-25.6h256c12.8 0 25.6 12.8 25.6 25.6v512c0 8.533-4.267 17.067-8.533 21.333zM512 302.933c-12.8 0-25.6-12.8-25.6-25.6v-221.867c0-12.8 12.8-25.6 25.6-25.6s25.6 12.8 25.6 25.6v221.867c0 12.8-12.8 25.6-25.6 25.6z" />
<glyph unicode="&#xe920;" glyph-name="ic_sign_line" d="M921.6 294.4l-81.067 81.067c-4.267 8.533-17.067 8.533-25.6 0l-234.667-234.667c-4.267-4.267-4.267-8.533-4.267-12.8v-81.067c0-12.8 12.8-21.333 21.333-21.333h81.067c8.533 0 12.8 0 8.533 8.533l234.667 234.667c8.533 4.267 8.533 17.067 0 25.6zM674.133 64h-55.467v55.467l217.6 217.6 55.467-55.467-217.6-217.6zM298.667 426.667c-12.8 0-21.333-8.533-21.333-21.333s8.533-21.333 21.333-21.333h384c12.8 0 21.333 8.533 21.333 21.333s-8.533 21.333-21.333 21.333h-384zM512 298.667h-213.333c-12.8 0-21.333-8.533-21.333-21.333s8.533-21.333 21.333-21.333h213.333c12.8 0 21.333 8.533 21.333 21.333s-8.533 21.333-21.333 21.333zM486.4 89.6h-217.6c-29.867 0-46.933 0-55.467 4.267s-12.8 8.533-17.067 17.067c-4.267 8.533-4.267 25.6-4.267 55.467v563.2c0 29.867 0 46.933 8.533 55.467 0 8.533 8.533 17.067 17.067 21.333s25.6 4.267 55.467 4.267h260.267v-132.267c0-38.4 0-59.733 8.533-76.8s21.333-29.867 38.4-38.4c17.067-8.533 38.4-8.533 76.8-8.533h136.533v-85.333c0-12.8 8.533-21.333 21.333-21.333s21.333 8.533 21.333 21.333v93.867c0 17.067 0 29.867-4.267 38.4s-8.533 17.067-12.8 25.6c-4.267 12.8-12.8 17.067-25.6 29.867l-183.467 166.4c-12.8 8.533-17.067 17.067-25.6 17.067-8.533 4.267-17.067 8.533-25.6 8.533-8.533 4.267-17.067 4.267-34.133 4.267h-251.733c-38.4 0-59.733 0-76.8-8.533s-29.867-21.333-38.4-38.4c-8.533-17.067-8.533-38.4-8.533-76.8v-563.2c0-38.4 0-59.733 8.533-76.8s21.333-29.867 38.4-38.4c17.067-8.533 38.4-8.533 76.8-8.533h217.6c12.8 0 17.067 12.8 17.067 25.6s-8.533 21.333-21.333 21.333zM588.8 789.333l183.467-170.667c8.533-8.533 12.8-12.8 17.067-17.067 0 0 0-4.267 0-4.267h-132.267c-34.133 0-51.2 0-59.733 4.267s-12.8 8.533-17.067 17.067c-4.267 12.8-4.267 29.867-4.267 59.733v123.733c4.267-4.267 8.533-8.533 12.8-12.8z" />
<glyph unicode="&#xe921;" glyph-name="ic_sign_on" d="M921.6 294.4l-81.067 81.067c-4.267 8.533-17.067 8.533-25.6 0l-234.667-234.667c-4.267-4.267-4.267-8.533-4.267-12.8v-81.067c0-12.8 12.8-21.333 21.333-21.333h81.067c8.533 0 12.8 0 8.533 8.533l234.667 234.667c8.533 4.267 8.533 17.067 0 25.6zM298.667 426.667c-12.8 0-21.333-8.533-21.333-21.333s8.533-21.333 21.333-21.333h384c12.8 0 21.333 8.533 21.333 21.333s-8.533 21.333-21.333 21.333h-384zM512 298.667h-213.333c-12.8 0-21.333-8.533-21.333-21.333s8.533-21.333 21.333-21.333h213.333c12.8 0 21.333 8.533 21.333 21.333s-8.533 21.333-21.333 21.333zM486.4 89.6h-217.6c-29.867 0-46.933 0-55.467 4.267s-12.8 8.533-17.067 17.067c-4.267 8.533-4.267 25.6-4.267 55.467v563.2c0 29.867 0 46.933 8.533 55.467 0 8.533 8.533 17.067 17.067 21.333s25.6 4.267 55.467 4.267h260.267v-132.267c0-38.4 0-59.733 8.533-76.8s21.333-29.867 38.4-38.4c17.067-8.533 38.4-8.533 76.8-8.533h136.533v-85.333c0-12.8 8.533-21.333 21.333-21.333s21.333 8.533 21.333 21.333v93.867c0 17.067 0 29.867-4.267 38.4s-8.533 17.067-12.8 25.6c-4.267 12.8-12.8 17.067-25.6 29.867l-183.467 166.4c-12.8 8.533-17.067 17.067-25.6 17.067-8.533 4.267-17.067 8.533-25.6 8.533-8.533 4.267-17.067 4.267-34.133 4.267h-251.733c-38.4 0-59.733 0-76.8-8.533s-29.867-21.333-38.4-38.4c-8.533-17.067-8.533-38.4-8.533-76.8v-563.2c0-38.4 0-59.733 8.533-76.8s21.333-29.867 38.4-38.4c17.067-8.533 38.4-8.533 76.8-8.533h217.6c12.8 0 17.067 12.8 17.067 25.6s-8.533 21.333-21.333 21.333zM576 797.867v0c0 4.267 4.267 0 0 0v0zM789.333 601.6c0 0 0-4.267 0 0v0l-76.8 72.533 59.733-55.467c8.533-8.533 12.8-12.8 17.067-17.067z" />
<glyph unicode="&#xe922;" glyph-name="ic_support_on" d="M554.667 691.2c17.067 8.533 34.133 21.333 46.933 38.4s17.067 38.4 17.067 59.733c0 29.867-8.533 55.467-29.867 76.8-21.333 17.067-46.933 29.867-76.8 29.867-21.333 0-42.667-4.267-64-17.067-17.067-8.533-29.867-25.6-38.4-46.933-4.267-21.333-8.533-42.667-4.267-64s12.8-38.4 29.867-59.733c17.067-17.067 34.133-25.6 55.467-29.867 8.533 0 12.8 0 17.067 0 0 0 4.267 0 4.267 0 12.8 0 29.867 4.267 42.667 12.8zM499.2 729.6c-8.533 4.267-21.333 8.533-29.867 17.067s-17.067 17.067-17.067 34.133c0 8.533 0 21.333 4.267 34.133 4.267 8.533 12.8 17.067 21.333 29.867 8.533 4.267 21.333 8.533 34.133 8.533 17.067-4.267 34.133-8.533 42.667-21.333 8.533-8.533 17.067-25.6 17.067-42.667 0-12.8 0-25.6-8.533-34.133s-17.067-17.067-29.867-21.333c-8.533-4.267-21.333-8.533-34.133-4.267zM328.533 507.733c12.8-4.267 25.6 0 29.867 12.8 17.067 38.4 38.4 64 64 85.333 55.467 38.4 123.733 38.4 174.933 0 29.867-21.333 51.2-51.2 64-85.333 4.267-8.533 12.8-12.8 21.333-12.8 4.267 0 4.267 4.267 4.267 0 12.8 4.267 17.067 17.067 12.8 29.867-17.067 42.667-42.667 76.8-76.8 102.4s-72.533 38.4-115.2 38.4-81.067-12.8-115.2-38.4c-34.133-25.6-59.733-59.733-76.8-102.4-4.267-12.8 0-25.6 12.8-29.867zM947.2 379.733c-8.533 12.8-17.067 21.333-25.6 29.867s-21.333 12.8-34.133 17.067c-12.8 0-25.6 4.267-38.4 0s-25.6-8.533-38.4-17.067l-72.533-55.467c-4.267 12.8-12.8 21.333-25.6 34.133-17.067 17.067-46.933 29.867-81.067 34.133h-243.2c-29.867 0-59.733-8.533-85.333-21.333-8.533-4.267-17.067-8.533-25.6-17.067v21.333c0 12.8-8.533 21.333-21.333 21.333h-170.667c-12.8 0-21.333-8.533-21.333-21.333v-384c0-12.8 8.533-21.333 21.333-21.333h170.667c12.8 0 21.333 8.533 21.333 21.333v21.333h384c25.6 4.267 51.2 12.8 76.8 29.867l183.467 162.133c21.333 17.067 34.133 42.667 38.4 68.267 4.267 29.867 0 55.467-12.8 76.8zM908.8 307.2c0-17.067-8.533-29.867-21.333-38.4l-183.467-162.133c-12.8-8.533-29.867-17.067-46.933-17.067h-379.733v234.667c12.8 17.067 29.867 29.867 46.933 38.4 21.333 8.533 42.667 17.067 64 17.067h238.933c21.333 0 42.667-8.533 55.467-21.333 8.533-4.267 17.067-17.067 21.333-29.867l-51.2-34.133c-12.8-12.8-34.133-17.067-51.2-17.067h-123.733v-46.933h123.733c29.867 0 55.467 8.533 81.067 25.6l153.6 110.933c4.267 4.267 12.8 8.533 17.067 8.533s12.8 0 17.067 0c4.267 0 12.8-4.267 17.067-8.533s8.533-8.533 12.8-17.067 12.8-25.6 8.533-42.667z" />
<glyph unicode="&#xe923;" glyph-name="ic_support_line" d="M554.667 691.2c17.067 8.533 34.133 21.333 46.933 38.4s17.067 38.4 17.067 59.733c0 29.867-8.533 55.467-29.867 76.8-21.333 17.067-46.933 29.867-76.8 29.867-21.333 0-42.667-4.267-64-17.067-17.067-8.533-29.867-25.6-38.4-46.933-4.267-21.333-8.533-42.667-4.267-64s12.8-38.4 29.867-59.733c17.067-17.067 34.133-25.6 55.467-29.867 8.533 0 12.8 0 17.067 0 0 0 4.267 0 4.267 0 12.8 0 29.867 4.267 42.667 12.8zM499.2 729.6c-8.533 4.267-21.333 8.533-29.867 17.067s-17.067 17.067-17.067 34.133c0 8.533 0 21.333 4.267 34.133 4.267 8.533 12.8 17.067 21.333 29.867 8.533 4.267 21.333 8.533 34.133 8.533 17.067-4.267 34.133-8.533 42.667-21.333 8.533-8.533 17.067-25.6 17.067-42.667 0-12.8 0-25.6-8.533-34.133s-17.067-17.067-29.867-21.333c-8.533-4.267-21.333-8.533-34.133-4.267zM328.533 507.733c12.8-4.267 25.6 0 29.867 12.8 17.067 38.4 38.4 64 64 85.333 55.467 38.4 123.733 38.4 174.933 0 29.867-21.333 51.2-51.2 64-85.333 4.267-8.533 12.8-12.8 21.333-12.8 4.267 0 4.267 4.267 4.267 0 12.8 4.267 17.067 17.067 12.8 29.867-17.067 42.667-42.667 76.8-76.8 102.4s-72.533 38.4-115.2 38.4-81.067-12.8-115.2-38.4c-34.133-25.6-59.733-59.733-76.8-102.4-4.267-12.8 0-25.6 12.8-29.867zM947.2 379.733c-8.533 12.8-17.067 21.333-25.6 29.867s-21.333 12.8-34.133 17.067c-12.8 0-25.6 4.267-38.4 0s-25.6-8.533-38.4-17.067l-72.533-55.467c-4.267 12.8-12.8 21.333-25.6 34.133-17.067 17.067-46.933 29.867-81.067 34.133h-243.2c-29.867 0-59.733-8.533-85.333-21.333-8.533-4.267-17.067-8.533-25.6-17.067v21.333c0 12.8-8.533 21.333-21.333 21.333h-170.667c-12.8 0-21.333-8.533-21.333-21.333v-384c0-12.8 8.533-21.333 21.333-21.333h170.667c12.8 0 21.333 8.533 21.333 21.333v21.333h384c25.6 4.267 51.2 12.8 76.8 29.867l183.467 162.133c21.333 17.067 34.133 42.667 38.4 68.267 4.267 29.867 0 55.467-12.8 76.8zM230.4 42.667h-123.733v337.067h123.733v-337.067zM908.8 307.2c0-17.067-8.533-29.867-21.333-38.4l-183.467-162.133c-12.8-8.533-29.867-17.067-46.933-17.067h-379.733v234.667c12.8 17.067 29.867 29.867 46.933 38.4 21.333 8.533 42.667 17.067 64 17.067h238.933c21.333 0 42.667-8.533 55.467-21.333 8.533-4.267 17.067-17.067 21.333-29.867l-51.2-34.133c-12.8-12.8-34.133-17.067-51.2-17.067h-123.733v-46.933h123.733c29.867 0 55.467 8.533 81.067 25.6l153.6 110.933c4.267 4.267 12.8 8.533 17.067 8.533s12.8 0 17.067 0c4.267 0 12.8-4.267 17.067-8.533s8.533-8.533 12.8-17.067 12.8-25.6 8.533-42.667z" />
<glyph unicode="&#xe924;" glyph-name="ic_alarm" horiz-adv-x="926" d="M897.219 252.952c-4.876 24.381-14.629 48.762-34.133 63.39l-48.762 43.886v214.552c0 48.762-4.876 97.524-24.381 141.41s-43.886 87.771-78.019 121.905c-34.133 34.133-73.143 63.39-117.029 82.895-92.648 39.010-195.048 39.010-282.819 0-43.886-19.505-87.771-48.762-117.029-82.895s-63.39-73.143-82.895-121.905c-14.629-43.886-24.381-92.648-19.505-141.41v-214.552l-48.762-43.886c-19.505-14.629-29.257-39.010-34.133-63.39s0-48.762 14.629-73.143c9.752-14.629 24.381-29.257 43.886-39.010 9.752-4.876 29.257-9.752 48.762-9.752 0 0 0 0 0 0h146.286c0-9.752 4.876-19.505 4.876-34.133 9.752-24.381 19.505-48.762 39.010-68.267s39.010-34.133 63.39-48.762c24.381-9.752 53.638-14.629 78.019-14.629 29.257 0 53.638 4.876 78.019 14.629s48.762 29.257 63.39 48.762c19.505 19.505 29.257 43.886 39.010 68.267 4.876 9.752 4.876 19.505 4.876 34.133h141.41c0 0 0 0 0 0 19.505 0 39.010 4.876 53.638 14.629s29.257 24.381 43.886 39.010c19.505 19.505 24.381 43.886 24.381 68.267zM551.010 121.295c-4.876-14.629-9.752-29.257-19.505-39.010s-24.381-19.505-34.133-24.381c-29.257-14.629-58.514-14.629-87.771 0-14.629 4.876-24.381 14.629-34.133 24.381s-19.505 24.381-19.505 39.010c0 0 0 4.876 0 4.876h204.8c-4.876 0-9.752 0-9.752-4.876zM809.448 228.571c-4.876-4.876-4.876-9.752-9.752-9.752s-9.752-4.876-14.629-4.876c0 0 0 0 0 0h-668.038c0 0 0 0 0 0-4.876 0-9.752 0-14.629 4.876-4.876 0-9.752 4.876-9.752 9.752-4.876 4.876-4.876 9.752-4.876 14.629s4.876 9.752 4.876 14.629l63.39 58.514c9.752 9.752 14.629 19.505 14.629 29.257v234.057c0 39.010 4.876 73.143 14.629 107.276 14.629 34.133 34.133 68.267 58.514 92.648 24.381 29.257 58.514 48.762 92.648 63.39 39.010 19.505 78.019 24.381 117.029 24.381s73.143-9.752 107.276-24.381c34.133-14.629 63.39-34.133 92.648-63.39 24.381-29.257 43.886-58.514 58.514-92.648s19.505-73.143 14.629-112.152v-234.057c0-9.752 4.876-24.381 14.629-29.257l63.39-58.514c4.876-4.876 4.876-9.752 4.876-14.629 0 0 0-4.876 0-9.752z" />
<glyph unicode="&#xe925;" glyph-name="ic_cell" d="M1023.968 193.339v-154.153c0.062-14.311-2.879-28.476-8.623-41.589-5.745-13.111-14.17-24.882-24.736-34.557-10.567-9.674-23.041-17.039-36.624-21.624s-27.977-6.287-42.257-5c-158.432 17.182-310.617 71.212-444.328 157.75-124.4 78.893-229.87 184.153-308.918 308.307-87.013 134.052-141.163 286.674-158.064 445.503-1.287 14.209 0.405 28.53 4.968 42.051s11.897 25.946 21.535 36.483c9.638 10.537 21.369 18.956 34.446 24.721s27.213 8.749 41.509 8.762h154.459c24.987 0.245 49.21-8.585 68.155-24.846s31.32-38.842 34.817-63.535c6.52-49.333 18.61-97.771 36.041-144.391 6.927-18.391 8.426-38.38 4.32-57.596s-13.646-36.854-27.489-50.825l-65.388-65.258c73.294-128.643 180.020-235.158 308.918-308.306l65.389 65.258c13.998 13.815 31.671 23.336 50.926 27.434s39.283 2.602 57.711-4.311c46.712-17.397 95.246-29.464 144.677-35.97 25.010-3.521 47.852-16.093 64.179-35.326 16.329-19.233 25.003-43.784 24.377-68.984z" />
<glyph unicode="&#xe926;" glyph-name="ic_search" d="M945.694-45.929c-18.071 0-30.118 6.024-42.165 18.071l-192.753 192.753c-30.118-24.094-60.235-36.141-90.353-54.212-102.4-42.165-222.871-42.165-325.271 0-54.212 24.094-96.376 54.212-138.541 90.353-78.306 78.306-120.471 186.729-120.471 301.176s42.165 216.847 126.494 295.153c78.306 78.306 186.729 126.494 295.153 126.494s216.847-42.165 301.176-120.471c0 0 0 0 0 0 30.118-36.141 60.235-84.329 84.329-132.518 24.094-54.212 30.118-108.424 30.118-162.635s-12.047-108.424-30.118-162.635c-12.047-30.118-30.118-66.259-54.212-90.353l192.753-192.753c24.094-24.094 24.094-60.235 0-84.329-6.024-18.071-24.094-24.094-36.141-24.094zM451.765 809.412c0 0 0 0 0 0-78.306 0-156.612-30.118-210.824-90.353s-90.353-132.518-90.353-210.824c0-78.306 30.118-156.612 84.329-210.824 30.118-30.118 60.235-48.188 96.376-66.259 72.282-30.118 156.612-30.118 228.894 0 36.141 18.071 72.282 36.141 96.376 66.259 30.118 30.118 48.188 60.235 66.259 96.376s24.094 78.306 24.094 114.447c0 42.165-6.024 78.306-24.094 114.447-6.024 36.141-30.118 72.282-54.212 96.376-60.235 60.235-132.518 90.353-216.847 90.353z" />
<glyph unicode="&#xe927;" glyph-name="ic_del" horiz-adv-x="896" d="M851.2 755.2h-179.2v44.8c0 32-12.8 70.4-38.4 96s-57.6 38.4-96 38.4h-179.2c-38.4 0-70.4-12.8-96-38.4s-38.4-57.6-38.4-96v-44.8h-179.2c-25.6 0-44.8-19.2-44.8-44.8s19.2-44.8 44.8-44.8h44.8v-569.6c0-32 12.8-70.4 38.4-96s57.6-38.4 96-38.4h448c38.4 0 70.4 12.8 96 38.4s38.4 57.6 38.4 96v576h44.8c25.6 0 44.8 19.2 44.8 44.8s-19.2 38.4-44.8 38.4zM313.6 800c0 12.8 6.4 25.6 12.8 32s19.2 12.8 32 12.8h179.2c12.8 0 25.6-6.4 32-12.8s12.8-19.2 12.8-32v-44.8h-268.8v44.8zM716.8 102.4c0-12.8-6.4-25.6-12.8-32s-19.2-12.8-32-12.8h-448c-12.8 0-25.6 6.4-32 12.8s-12.8 19.2-12.8 32v569.6h537.6v-569.6zM358.4 185.6c25.6 0 44.8 19.2 44.8 44.8v262.4c0 25.6-19.2 44.8-44.8 44.8s-44.8-19.2-44.8-44.8v-262.4c0-19.2 19.2-44.8 44.8-44.8zM537.6 185.6c25.6 0 44.8 19.2 44.8 44.8v262.4c0 25.6-19.2 44.8-44.8 44.8s-44.8-19.2-44.8-44.8v-262.4c0-19.2 19.2-44.8 44.8-44.8z" />
<glyph unicode="&#xe928;" glyph-name="ic_x" d="M563.2 433.371l409.6 416.914c14.629 14.629 14.629 36.571 0 51.2s-36.571 14.629-51.2 0l-409.6-416.914-409.6 409.6c-14.629 14.629-36.571 14.629-51.2 0s-14.629-36.571 0-51.2l409.6-416.914-409.6-416.914c-14.629-14.629-14.629-36.571 0-51.2 7.314-7.314 14.629-7.314 29.257-7.314s21.943 0 29.257 7.314l402.286 424.229 409.6-416.914c7.314-7.314 14.629-7.314 29.257-7.314s21.943 0 29.257 7.314c14.629 14.629 14.629 36.571 0 51.2l-416.914 416.914z" />
<glyph unicode="&#xe929;" glyph-name="ic-download" d="M896 362.667c-25.6 0-42.667-17.067-42.667-42.667v-170.667c0-12.8-4.267-21.333-12.8-29.867s-17.067-12.8-29.867-12.8h-597.333c-12.8 0-21.333 4.267-29.867 12.8s-12.8 17.067-12.8 29.867v170.667c0 25.6-17.067 42.667-42.667 42.667s-42.667-17.067-42.667-42.667v-170.667c0-34.133 12.8-68.267 38.4-89.6 21.333-25.6 55.467-38.4 89.6-38.4h597.333c34.133 0 68.267 12.8 89.6 38.4 25.6 25.6 38.4 55.467 38.4 89.6v170.667c0 25.6-17.067 42.667-42.667 42.667zM482.133 290.133c4.267-4.267 8.533-8.533 12.8-8.533s8.533-4.267 17.067-4.267c0 0 0 0 0 0s0 0 0 0c4.267 0 12.8 0 17.067 4.267s8.533 4.267 12.8 8.533l213.333 213.333c17.067 17.067 17.067 42.667 0 59.733s-42.667 17.067-59.733 0l-140.8-140.8v409.6c0 25.6-17.067 42.667-42.667 42.667s-42.667-17.067-42.667-42.667v-409.6l-140.8 140.8c-17.067 17.067-42.667 17.067-59.733 0s-17.067-42.667 0-59.733l213.333-213.333z" />
<glyph unicode="&#xe92a;" glyph-name="ic_clip" d="M669.29 869.756c-36.061 0-70.644-14.272-96.143-39.677l-416.202-414.67c-42.495-42.338-66.368-99.761-66.368-159.636s23.873-117.298 66.368-159.634c42.495-42.342 100.13-66.128 160.226-66.128s117.731 23.786 160.227 66.128l416.203 414.667c17.686 17.621 46.358 17.621 64.044 0s17.686-46.191 0-63.812l-416.2-414.672c-59.481-59.26-140.155-92.555-224.274-92.555s-164.792 33.295-224.274 92.555c-59.481 59.268-92.897 139.644-92.897 223.451 0 83.809 33.416 164.186 92.897 223.449l416.202 414.67c42.485 42.329 100.108 66.109 160.191 66.109s117.705-23.78 160.194-66.109c42.481-42.329 66.348-99.739 66.348-159.601s-23.867-117.272-66.348-159.601l-416.658-414.667c-25.49-25.395-60.060-39.665-96.108-39.665s-70.618 14.27-96.107 39.665c-25.49 25.395-39.809 59.838-39.809 95.751 0 35.915 14.32 70.358 39.809 95.754l384.519 382.653c17.697 17.611 46.372 17.594 64.048-0.038s17.659-46.201-0.037-63.812l-384.481-382.615c-8.491-8.47-13.28-19.97-13.28-31.941 0-11.981 4.777-23.47 13.28-31.941s20.035-13.232 32.059-13.232c12.025 0 23.557 4.762 32.060 13.232l416.655 414.67c25.49 25.403 39.826 59.869 39.826 95.789 0 35.928-14.329 70.385-39.826 95.789s-60.082 39.677-96.143 39.677z" />
<glyph unicode="&#xe92b;" glyph-name="ic-new_tab" d="M625.778 846.222c-15.088 0-29.558 5.994-40.227 16.663s-16.662 25.139-16.662 40.227c0 15.088 5.993 29.558 16.662 40.227s25.139 16.662 40.227 16.662h341.331c15.089 0 29.557-5.994 40.229-16.662s16.662-25.139 16.662-40.227v-341.333c0-15.088-5.99-29.558-16.662-40.227s-25.139-16.662-40.229-16.662c-15.089 0-29.557 5.993-40.229 16.662-10.664 10.669-16.662 25.139-16.662 40.227v204.003l-528.665-528.669c-10.73-10.363-25.1-16.097-40.016-15.966-14.916 0.124-29.185 6.107-39.733 16.658-10.547 10.548-16.53 24.817-16.66 39.733s5.604 29.286 15.967 40.016l528.671 528.668h-204.006zM0 732.445c0 30.176 11.987 59.116 33.325 80.453s50.278 33.325 80.453 33.325h284.444c15.088 0 29.558-5.993 40.227-16.662s16.662-25.138 16.662-40.226c0-15.088-5.993-29.558-16.662-40.227s-25.139-16.662-40.227-16.662h-284.444v-682.663h682.667v284.441c0 15.088 5.99 29.558 16.662 40.227s25.139 16.662 40.229 16.662c15.082 0 29.557-5.993 40.221-16.662 10.672-10.669 16.662-25.139 16.662-40.227v-284.441c0-30.179-11.981-59.121-33.324-80.457-21.336-21.336-50.278-33.324-80.45-33.324h-682.667c-30.176 0-59.116 11.988-80.453 33.324s-33.325 50.278-33.325 80.457v682.663z" />
<glyph unicode="&#xe92c;" glyph-name="ic_exlcude" horiz-adv-x="205" d="M0 399.583c0-55.094 40.96-91.823 102.4-91.823s102.4 36.729 102.4 91.823v367.293c0 55.094-40.96 91.823-102.4 91.823s-102.4-36.729-102.4-91.823v-367.293zM102.4 5.2c56.553 0 102.4 45.847 102.4 102.4s-45.847 102.4-102.4 102.4-102.4-45.846-102.4-102.4c0-56.553 45.846-102.4 102.4-102.4z" />
<glyph unicode="&#xe92d;" glyph-name="ic_refesh" d="M873.504 809.6c-92.856 92.8-220.295 150.4-361.824 150.4-283.056 0-511.679-229.12-511.679-512 0-282.876 228.623-512 511.679-512 238.87 0 438.033 163.202 495.031 384h-133.207c-52.508-149.118-194.679-256-361.824-256-211.972 0-384.239 172.16-384.239 384s172.268 384 384.239 384c106.307 0 201.086-44.16 270.249-113.92l-206.209-206.080h448.28v448l-150.496-150.4z" />
<glyph unicode="&#xe92e;" glyph-name="ic_que_mark" horiz-adv-x="768" d="M423.035 755.251c-37.919 6.399-76.916-0.612-110.085-19.788s-58.367-49.28-71.135-84.98c-14.927-41.746-61.431-63.683-103.868-48.997s-64.737 60.431-49.809 102.176c25.534 71.402 75.933 131.611 142.269 169.962 66.337 38.351 144.332 52.37 220.169 39.574s144.625-51.582 194.177-109.488c49.542-57.893 76.662-131.164 76.558-206.838-0.026-85.75-45.869-151.29-93.257-195.951-47.404-44.677-103.612-75.679-143.296-94.38-3.171-1.492-5.473-3.629-6.749-5.473-0.594-0.859-0.859-1.495-0.968-1.829-0.095-0.289-0.093-0.425-0.093-0.425v-22.377c0-44.253-36.468-80.128-81.454-80.128s-81.454 35.875-81.454 80.128v22.376c0 69.695 44.682 126.029 100.337 152.256 32.292 15.217 71.228 37.532 100.975 65.568 29.75 28.038 43.052 54.586 43.052 80.308 0.058 37.846-13.503 74.609-38.28 103.562s-59.169 48.346-97.088 54.743zM483.464 36.058c0-44.253-36.468-80.128-81.454-80.128s-81.454 35.875-81.454 80.128c0 44.252 36.468 80.127 81.454 80.127s81.454-35.875 81.454-80.127z" />
<glyph unicode="&#xe92f;" glyph-name="ic_ment" d="M578.597 552.023c19.995 19.969 52.413 19.969 72.408 0l256.004-255.674c19.995-19.969 19.995-52.346 0-72.315l-256.004-255.674c-19.995-19.969-52.413-19.969-72.408 0s-19.996 52.347 0 72.316l219.799 219.516-219.799 219.516c-19.996 19.97-19.996 52.347 0 72.316zM51.201 873.8c28.277 0 51.2-22.894 51.2-51.135v-357.943c0-40.686 16.183-79.704 44.989-108.473s67.876-44.931 108.614-44.931h614.409c28.277 0 51.2-22.894 51.2-51.134s-22.923-51.135-51.2-51.135h-614.409c-67.896 0-133.012 26.937-181.022 74.885s-74.982 112.98-74.982 180.789v357.943c0 28.241 22.923 51.135 51.201 51.135z" />
<glyph unicode="&#xe930;" d="M85.333 576c0 212.077 171.923 384 384 384h85.333c212.077 0 384-171.923 384-384v-554.667h-853.333v554.667z" />
<glyph unicode="&#xe931;" d="M85.333 106.667h853.333c47.128 0 85.333-38.205 85.333-85.333s-38.205-85.333-85.333-85.333h-853.333c-47.128 0-85.333 38.205-85.333 85.333s38.205 85.333 85.333 85.333z" />
<glyph unicode="&#xe932;" d="M725.333 789.333c23.564 0 42.667-19.103 42.667-42.667v-256c0-23.564-19.103-42.667-42.667-42.667s-42.667 19.103-42.667 42.667v256c0 23.564 19.103 42.667 42.667 42.667z" />
</font>
</defs>
</svg>
